London Grammar -If You Wait 无损HiFi原声大碟 LP [24bit/96kHz]

音乐视频分享 21/9/2 97 0

If You Wait-London Grammar

If You Wait-London Grammar


专辑艺人:London Grammar  
专辑名称:If You Wait
唱片公司:Metal & Dust Recordings
发行时间:2013-09-09
专辑语种:英语
音乐风格:Rock
资源格式:flac分轨

If You Wait-London Grammar B

If You Wait-London Grammar B



London Grammar -If You Wait

London Grammar -If You Wait


London Grammar 是一支来自英国的新晋独立乐队,他们的音乐慢板且迷幻的,忧郁飘渺的吉他与唱腔搭配伤感哀怨的歌词,营造出氛围音乐与古典美的完美结合。女主唱Hannah Reid的嗓音相当有辨识度。

  London Grammar的首张专辑《If You Wait》在2013年9月9日发行,发行后大获成功,首周在英国金榜上排名第2位。目前首张专辑已获得英国的白金唱片和澳大利亚的金唱片认证。该专辑在亚洲地区由索尼音乐发行。推荐首播主打单曲《Strong》。

码率:24bit/92kHz
Official DR value: DR8


曲目:
1 Hey Now 00:03:27
2 Stay Awake 00:03:05
3 Shyer 00:03:07
4 Wasting My Young Years 00:03:24
5 Sights 00:04:13
6 Strong 00:04:35
7 Nightcall 00:04:30
8 Metal & Dust 00:03:28
9 Interlude (Live) 00:04:04
10 Flickers 00:04:45
11 If You Wait 00:04:44
12 Help 00:03:53
13 Darling Are You Gonna Leave Me 00:03:02
14 Help Me Lose My Mind (feat. Disclosure) 00:04:06
15 High Life 00:04:03
16 Maybe 00:04:23
17 When We Were Young 00:03:06

If You Wait-London Grammar AAC音频格式下载:
游客,如果您要查看本帖隐藏内容请回复



London Grammar - If You Wait - 2013 (Pop Rock).torrent (14.84 KB, 下载次数: 0, 售价: 2 金钱)
foobar2000 1.2.9 / Dynamic Range Meter 1.1.1
log date: 2013-10-08 05:22:20

--------------------------------------------------------------------------------
Analyzed: London Grammar / If You Wait
--------------------------------------------------------------------------------

DR         Peak         RMS     Duration Track
--------------------------------------------------------------------------------
DR6       -0.30 dB    -9.35 dB      3:27 01-Hey Now
DR7       -0.30 dB   -10.98 dB      3:06 02-Stay Awake
DR7       -0.30 dB   -11.79 dB      3:07 03-Shyer
DR7       -0.30 dB   -11.29 dB      3:24 04-Wasting My Young Years
DR7       -0.30 dB   -11.43 dB      4:13 05-Sights
DR8       -0.31 dB   -11.58 dB      4:36 06-Strong
DR7       -0.30 dB   -11.89 dB      4:31 07-Nightcall
DR7       -0.30 dB   -10.46 dB      3:28 08-Metal & Dust
DR10      -0.30 dB   -14.69 dB      4:05 09-Interlude (Live)
DR9       -0.30 dB   -11.88 dB      4:45 10-Flickers
DR10      -0.30 dB   -15.40 dB      4:45 11-If You Wait
DR9       -0.31 dB   -14.74 dB      3:54 12-Help
DR6       -0.30 dB    -9.45 dB      3:02 13-Darling Are You Gonna Leave Me
DR5       -1.09 dB    -8.11 dB      4:07 14-Help Me Lose My Mind (feat. Disclosure)
DR8       -0.30 dB   -10.50 dB      4:04 15-High Life
DR7       -0.30 dB   -10.41 dB      4:24 16-Maybe
DR8       -0.30 dB    -9.80 dB      3:06 17-When We Were Young
--------------------------------------------------------------------------------

Number of tracks:  17
Official DR value: DR8

Samplerate:        44100 Hz
Channels:          2
Bits per sample:   24
Bitrate:           1553 kbps
Codec:             FLAC

London Grammar -If You Wait 无损原声大碟LP[24bit/96kHz]
[LP] [24bit 92kHz] London Grammar - If You Wait - 2013, FLAC .torrent (18.59 KB, 下载次数: 0, 售价: 5 金钱)

foobar2000 1.2.9 / Dynamic Range Meter 1.1.1
log date: 2014-02-01 21:51:45

--------------------------------------------------------------------------------
Analyzed: London Grammar / If You Wait
--------------------------------------------------------------------------------

DR         Peak         RMS     Duration Track
--------------------------------------------------------------------------------
DR9       -0.49 dB   -13.71 dB      3:22 01-Hey Now
DR11      -1.03 dB   -15.80 dB      3:04 02-Stay Awake
DR10      -1.70 dB   -16.84 dB      3:08 03-Shyer
DR12      -0.52 dB   -17.01 dB      3:22 04-Wasting My Young Years
DR10      -3.22 dB   -17.35 dB      4:13 05-Sights
DR12      -1.02 dB   -17.50 dB      4:35 06-Strong
DR11      -1.22 dB   -17.31 dB      4:29 07-Nightcall
DR10      -0.63 dB   -14.78 dB      3:28 08-Metal & Dust
DR13      -0.55 dB   -19.51 dB      4:01 09-Interlude
DR11      -0.45 dB   -14.96 dB      4:44 10-Flickers
DR10      -2.74 dB   -19.31 dB      4:43 11-If You Wait
--------------------------------------------------------------------------------

Number of tracks:  11
Official DR value: DR11

Samplerate:        96000 Hz
Channels:          2
Bits per sample:   24
Bitrate:           4608 kbps
Codec:             PCM电机控制器:Pro-Ject Speed Box SE II
唱头:Clearaudio Virtuoso V2
互连:Clearaudio(原装)
唱机放大器:Pro-Ject Phono Box RS
清洁过程:
Okki Nokki:是
录音:
录音机:Tascam DR100 MKII 连接到 Pro-Ject Phono Box RS
互连:Audioquest Diamond Back XLR

London Grammar - If You Wait 专辑 无损音乐 LP  AAC  WAV 24bit HIFI 多种音频格式

打赏楼主

取消

感谢您的支持,我会继续努力的!

扫码支持
扫码打赏,你说多少就多少

打开支付宝扫一扫,即可进行扫码打赏哦

相关帖子
请勿发布不友善或者负能量的内容。与人为善,比聪明更重要!
您需要登录后才可以回帖 登录 | 注册
本版积分规则